<?xml version="1.0" standalone="no"?>
<!DOCTYPE svg PUBLIC "-//W3C//DTD SVG 1.1//EN" "http://www.w3.org/Graphics/SVG/1.1/DTD/svg11.dtd">
<svg xmlns="http://www.w3.org/2000/svg">
<metadata>Generated by Fontastic.me</metadata>
<defs>
<font id="elegant-icons" horiz-adv-x="512">
<font-face font-family="elegant-icons" units-per-em="512" ascent="480" descent="-32"/>
<missing-glyph horiz-adv-x="512" />

<glyph unicode="&#97;" d="M480 480l-416 0c-18 0-32-14-32-32l0-416c0-18 14-32 32-32l416 0c18 0 32 14 32 32l0 416c0 18-14 32-32 32z m0-448l-416 0 0 416 416 0z m-336 192l256 0c9 0 16 7 16 16 0 9-7 16-16 16l-256 0c-9 0-16-7-16-16 0-9 7-16 16-16z m0 96l256 0c9 0 16 7 16 16 0 9-7 16-16 16l-256 0c-9 0-16-7-16-16 0-9 7-16 16-16z m0-192l256 0c9 0 16 7 16 16 0 9-7 16-16 16l-256 0c-9 0-16-7-16-16 0-9 7-16 16-16z"/>
<glyph unicode="&#98;" d="M304 512c-115 0-208-93-208-208 0-49 17-95 46-131l-137-137c-9-9-9-23 0-31 8-9 22-9 31 0l137 137c36-29 82-46 131-46 115 0 208 93 208 208 0 115-93 208-208 208z m0-384c-97 0-176 79-176 176 0 97 79 176 176 176 97 0 176-79 176-176 0-97-79-176-176-176z"/>
<glyph unicode="&#99;" d="M272 64c9 0 16 7 16 16l0 313 69-68c6-7 16-7 22 0 7 6 7 16 0 22l-96 96c-1 2-3 3-5 4-4 1-8 1-12 0-2-1-4-2-5-4 0 0 0 0 0 0l-96-96c-7-6-7-16 0-22 6-7 16-7 22 0l69 68 0-313c0-9 7-16 16-16z"/>
<glyph unicode="&#100;" d="M272 448c-9 0-16-7-16-16l0-313-69 68c-6 7-16 7-22 0-7-6-7-16 0-22l96-96c0 0 0 0 0 0 1-2 3-3 5-4 4-1 8-1 12 0 2 1 4 2 5 4l96 96c7 6 7 16 0 22-6 7-16 7-22 0l-69-68 0 313c0 9-7 16-16 16z"/>
<glyph unicode="&#101;" d="M64 272c0-2 0-4 1-6 1-2 2-4 4-5 0 0 0 0 0 0l96-96c6-7 16-7 22 0 7 6 7 16 0 22l-68 69 313 0c9 0 16 7 16 16 0 9-7 16-16 16l-313 0 68 69c7 6 7 16 0 22-6 7-16 7-22 0l-96-96c0 0 0 0 0 0-2-1-3-3-4-5-1-2-1-4-1-6 0 0 0 0 0 0z"/>
<glyph unicode="&#102;" d="M64 272c0-9 7-16 16-16l313 0-68-69c-7-6-7-16 0-22 6-7 16-7 22 0l96 96c2 1 3 3 4 5 1 2 1 4 1 6 0 0 0 0 0 0 0 2 0 4-1 6-1 2-2 4-4 5l-96 96c-6 7-16 7-22 0-7-6-7-16 0-22l68-69-313 0c-9 0-16-7-16-16z"/>
<glyph unicode="&#103;" d="M179 189l93 92 93-92c6-6 16-6 22 0 6 6 6 16 0 22l-104 104c-3 3-7 5-11 5-4 0-8-2-11-5l-104-104c-6-6-6-16 0-22 6-6 16-6 22 0z"/>
<glyph unicode="&#104;" d="M365 291l-93-92-93 92c-6 6-16 6-22 0-6-6-6-16 0-22l104-104c3-3 7-5 11-5 4 0 8 2 11 5l104 104c6 6 6 16 0 22-6 6-16 6-22 0z"/>
<glyph unicode="&#105;" d="M197 229l104-104c6-6 16-6 22 0 6 6 6 16 0 22l-92 93 92 93c6 6 6 16 0 22-6 6-16 6-22 0l-104-104c-3-3-5-7-5-11 0-4 2-8 5-11z"/>
<glyph unicode="&#106;" d="M221 125c6-6 16-6 22 0l104 104c3 3 5 7 5 11 0 4-2 8-5 11l-104 104c-6 6-16 6-22 0-6-6-6-16 0-22l92-93-92-93c-6-6-6-16 0-22z"/>
<glyph unicode="&#107;" d="M144 192l223 0c5 0 9 2 12 6l0 0c6 7 6 18 0 25l-112 124c-6 7-16 7-23 0 0 0 0-1 0-1l-112-123c-6-7-6-18 0-25 0 0 0-1 1-1 2-3 6-5 11-5z"/>
<glyph unicode="&#108;" d="M267 197c0 0 0 1 0 1l112 123c6 7 6 18 0 25 0 0 0 1 0 1-3 3-7 5-12 5l-223 0c-5 0-9-2-12-6l0 0c-6-7-6-18 0-25l112-124c7-7 17-7 23 0z"/>
<glyph unicode="&#109;" d="M289 380l-124-112c-7-7-7-17 0-23 0 0 1 0 1 0l123-112c7-6 18-6 25 0 0 0 0 0 1 0 3 3 5 7 5 12l0 223c0 5-2 9-6 12l0 0c-7 6-18 6-25 0z"/>
<glyph unicode="&#110;" d="M222 132l123 113c7 6 7 16 0 22 0 0-1 0-1 1l-122 112c-7 6-18 6-25 0 0 0 0-1 0-1-3-2-5-6-5-11l0-224c0-5 2-9 6-12l-1 0c7-6 18-6 25 0z"/>
<glyph unicode="&#111;" d="M30 42c3-6 9-9 15-9 46 0 85 11 129 37 21-4 63-8 82-8 140 0 254 94 254 209 0 115-114 208-254 208-140 0-254-93-254-208 0-54 26-107 72-146-10-23-24-46-41-66-4-5-5-12-3-17z m4 229c0 97 100 176 222 176 122 0 222-79 222-176 0-98-100-177-222-177-18 0-66 5-82 8-4 1-8 0-12-2-30-18-56-28-83-33 12 18 22 38 29 58 3 6 1 14-5 18-45 34-69 79-69 128z"/>
<glyph unicode="&#112;" d="M447 323c2-12 4-25 4-39 0-103-88-189-203-208 24-9 52-15 81-15 27 0 53 5 77 14 29-10 62-13 88-13-13 17-23 33-30 47 30 27 48 62 48 101 0 45-26 86-65 113z m-423-218c2-5 8-8 14-8 0 0 0 0 0 0 17 1 51 12 87 34 19-3 62-9 76-9 113 0 201 78 201 178 0 99-90 179-201 179-110 0-200-80-200-179 0-46 20-90 55-123-7-19-18-38-31-55-4-4-4-11-1-17z m9 195c0 81 75 147 169 147 93 0 168-66 168-147 0-83-72-146-168-146-13 0-63 7-77 10-4 1-9 0-12-2-14-9-27-16-38-21 6 11 11 23 15 35 3 7 1 14-4 18-34 28-53 66-53 106z"/>
<glyph unicode="&#113;" d="M465 480c0 0-1 0-1 0 0 0 0 0-1 0l-201 0c-5 0-16-8-17-9l-236-236c-12-12-12-33 0-45l181-181c6-6 14-9 23-9 8 0 16 3 22 9l236 236c1 1 9 11 9 17l0 202c0 9-6 16-15 16z m-17-212c0-1-1-1-1-2l-234-234-181 181 234 234c1 0 1 1 2 1l180 0z m-64 132c0-9 7-16 16-16 9 0 16 7 16 16 0 9-7 16-16 16-9 0-16-7-16-16z"/>
<glyph unicode="&#114;" d="M465 512c0 0 0 0 0 0 0 0 0 0-1 0 0 0 0 0 0 0 0 0 0 0 0 0 0 0 0 0 0 0l-170 0c-4 0-16-8-17-9l-204-204c-12-12-12-33 0-45l26-26-26-25c-12-12-12-33 0-45l149-149c6-6 14-9 23-9 8 0 16 3 22 9l204 204c1 1 9 11 9 17l0 266c0 9-6 16-15 16z m-17-276c0 0 0-1 0-1l-203-203-149 148 25 26 101-101c6-6 14-9 23-9 8 0 16 3 22 9l181 181z m0 148l0-52c0 0 0-1 0-1l-203-203-149 148 202 203c1 0 2 1 2 1l148 0z m-64 48c0-9 8-16 16-16 9 0 16 7 16 16 0 9-7 16-16 16-8 0-16-7-16-16z"/>
<glyph unicode="&#115;" d="M510 422c-4 13-16 23-30 23l-32 0 0-50c0-26-22-48-48-48-26 0-48 22-48 48l0 50-192 0 0-50c0-26-22-48-48-48-27 0-48 22-48 48l0 50-32 0c-14 0-26-10-30-23l-2 0 0-390c0-18 14-32 32-32l448 0c18 0 32 14 32 32l0 390z m-30-390l-448 0 0 256 448 0z m-368 347c9 0 16 7 16 16l0 101c0 9-7 16-16 16-9 0-16-7-16-16l0-101c0-9 7-16 16-16z m288 0c9 0 16 7 16 16l0 101c0 9-7 16-16 16-9 0-16-7-16-16l0-101c0-9 7-16 16-16z"/>
<glyph unicode="&#116;" d="M512 291c-2 78-65 148-144 148-46 0-86-24-112-59-26 35-66 59-112 59-79 0-142-70-144-148l0 0c0-1 0-1 0-2 0 0 0 0 0-1 0-2 1-4 1-6 7-200 253-282 253-282 0 0 250 82 257 282 0 2 1 4 1 6 0 1 0 1 0 1 0 1 0 1 0 2z m-33-8c-5-154-181-232-225-249-44 17-216 95-221 250 0 1-1 3-1 4 0 1 0 2 0 2 1 64 53 117 112 117 33 0 64-17 86-46 7-8 16-13 26-13 10 0 19 5 26 13 22 29 53 46 86 46 59 0 111-53 112-117 0 0 0-1 0-2 0-1-1-3-1-5z"/>
<glyph unicode="&#117;" d="M139 228c-7-8-9-19-7-29 2-10 9-18 19-22 22-10 61-16 105-17 0 0 0 0 0 0l0-96c0-18 7-64 16-64 9 0 16 46 16 64l0 96c0 0 0 0 0 0 44 1 83 7 105 17 10 4 17 12 19 22 2 10 0 21-7 29-13 15-36 23-53 27l0 166c17 5 31 13 42 21 10 7 15 19 13 31-2 11-10 21-22 25-15 5-51 14-113 14-66 0-102-10-115-14-11-4-19-14-21-26-2-11 3-23 13-30 11-9 26-16 43-22l0 0 0-165c-17-4-40-12-53-27z m63 223c-17 5-28 11-34 16 17 6 51 13 104 13 52 0 86-7 103-12-7-5-17-11-33-17l-22-7 0-214 24-6c18-4 31-11 37-18-15-6-51-14-109-14-58 0-94 8-109 14 6 7 19 14 37 18l24 6 0 213z"/>
<glyph unicode="&#118;" d="M276 325c0-25 20-45 44-45 25 0 45 20 45 45 0 25-20 45-45 45-24 0-44-20-44-45z m140-261l32 0 0 192-128-96-160 128-96-96 0-128z m64 384l-448 0c-18 0-32-14-32-32l0-384c0-18 14-32 32-32l448 0c18 0 32 14 32 32l0 384c0 18-14 32-32 32z m0-416l-448 0 0 384 448 0z"/>
<glyph unicode="&#119;" d="M480 416l-32 0 0 64c0 18-14 32-32 32l-384 0c-18 0-32-14-32-32l0-352c0-18 14-32 32-32l32 0 0-64c0-18 14-32 32-32l384 0c18 0 32 14 32 32l0 352c0 18-14 32-32 32z m-448-288l0 352 384 0 0-352z m448-96l-384 0 0 64 32 0 0-32 320 0 0 320 32 0z m-243 349c0-25 20-45 44-45 25 0 45 20 45 45 0 25-20 45-45 45-24 0-44-20-44-45z m-77-29l-96-64 0-128 320 0 0 160-128-64z"/>
<glyph unicode="&#120;" d="M480 416l-145 0c-17 0-37-9-47-32 0 0-4-29-32-32l-224 0c-18 0-32-14-32-31l0-289c0-18 14-32 32-32l448 0c18 0 32 14 32 32l0 352c0 18-14 32-32 32z m0-95l0-289-448 0 0 288 224 0c1 0 2 0 3 0 30 3 49 24 57 46 9 20 23 18 23 18l141 0z"/>
<glyph unicode="&#121;" d="M272 480c-133 0-240-107-240-240 0-133 107-240 240-240 133 0 240 107 240 240 0 133-107 240-240 240z m176-240c0-9-7-16-16-16l-249 0 68-69c7-6 7-16 0-22-6-7-16-7-22 0l-96 96c0 0 0 0 0 0-2 1-3 3-4 5-1 2-1 4-1 6 0 0 0 0 0 0 0 2 0 4 1 6 1 2 2 4 4 5 0 0 0 0 0 0l96 96c6 7 16 7 22 0 7-6 7-16 0-22l-68-69 249 0c9 0 16-7 16-16z"/>
<glyph unicode="&#122;" d="M272 480c-133 0-240-107-240-240 0-133 107-240 240-240 133 0 240 107 240 240 0 133-107 240-240 240z m144-240c0 0 0 0 0 0 0-2 0-4-1-6-1-2-2-4-4-5l-96-96c-6-7-16-7-22 0-7 6-7 16 0 22l68 69-249 0c-9 0-16 7-16 16 0 9 7 16 16 16l249 0-68 69c-7 6-7 16 0 22 6 7 16 7 22 0l96-96c2-1 3-3 4-5 1-2 1-4 1-6z"/>
<glyph unicode="&#65;" d="M81 120c-9-24-25-56-52-88 51 0 117 7 168 38 19-4 39-6 59-6 141 0 256 93 256 208 0 115-115 208-256 208-141 0-256-93-256-208 0-60 31-114 81-152z"/>
<glyph unicode="&#66;" d="M447 323c2-12 4-25 4-39 0-103-88-189-203-208 24-9 52-15 81-15 27 0 53 5 77 14 29-10 62-13 88-13-13 17-23 33-30 47 30 27 48 62 48 101 0 45-26 86-65 113z m-44-39c0 91-90 164-201 164-112 0-202-73-202-164 0-47 25-89 64-119-7-19-20-44-41-70 40 0 92 6 132 30 15-3 30-4 47-4 111 0 201 73 201 163z"/>
<glyph unicode="&#67;" d="M26 228l230 199 230-199c3-3 6-4 10-4 4 0 9 2 12 6 6 6 5 16-2 22l-240 208c-6 5-14 5-20 0l-86-74 0 30c0 18-14 32-32 32-18 0-32-14-32-32l0-85-90-79c-7-6-8-16-2-22 6-7 16-8 22-2z m166-68l128 0 0-160 96 0c18 0 32 14 32 32l0 157c0 9-4 18-12 25l-160 131c-6 5-13 7-20 7-7 0-14-2-20-7l-160-131c-8-6-12-16-12-25l0-157c0-18 14-32 32-32l96 0z"/>
<glyph unicode="&#68;" d="M104 408c-93-93-93-245 0-338 93-93 245-93 338 0 93 93 93 245 0 338-93 93-245 93-338 0z m296-184l-127 0c-1 0-1 0-1 0-9 0-16 7-16 16l0 160c0 9 7 16 16 16 9 0 16-7 16-16l0-144 112 0c9 0 16-7 16-16 0-9-7-16-16-16z"/>
<glyph unicode="&#69;" d="M480 384l-448 0c-18 0-32-14-32-32l0-54 256-102 256 102 0 54c0 18-14 32-32 32z m-480-138l0-214c0-18 14-32 32-32l448 0c18 0 32 14 32 32l0 214-256-102z"/>
<glyph unicode="&#70;" d="M480 352l-64 0c0 0-18 0-32 32-7 16-14 32-32 32l-128 0c-18 0-25-16-32-32-13-32-32-32-32-32l-32 0c0 18-14 32-32 32l-32 0c-18 0-32-14-32-32-18 0-32-14-32-32l0-64 178 0c22 38 63 64 110 64 47 0 88-26 110-64l114 0 0 64c0 18-14 32-32 32z m-368-64l-64 0c-9 0-16 7-16 16 0 9 7 16 16 16l64 0c9 0 16-7 16-16 0-9-7-16-16-16z m80-96c0-53 43-96 96-96 53 0 96 43 96 96 0 53-43 96-96 96-53 0-96-43-96-96z m224 0c0-71-57-128-128-128-71 0-128 57-128 128 0 11 2 22 5 32l-165 0 0-160c0-18 14-32 32-32l448 0c18 0 32 14 32 32l0 160-101 0c3-10 5-21 5-32z"/>
<glyph unicode="&#71;" d="M128 200c0-25 62-38 128-40 0 0 0 0 0 0l0-96c0-18 7-64 16-64 9 0 16 46 16 64l0 96c0 0 0 0 0 0 66 2 128 15 128 40 0 26-24 45-64 55l0 166c40 13 64 36 64 51 0 53-288 53-288 0 0-17 24-39 64-52l0-165c-40-10-64-29-64-55z"/>
<glyph unicode="&#72;" d="M13 25c24-31 73-33 110-5 15 12 26 27 31 42 4 7 6 16 6 27l0 239 288 55 0-127c0-44-34-55-46-57-1 0-2 0-3 0-1 0-2-1-2-1l1 0c-15-2-29-8-42-18-37-29-48-77-24-108 24-31 74-33 111-5 18 15 30 34 35 54 1 5 2 10 2 16l0 311c0 2 0 3-1 5 1 1 1 2 1 3l0 32c0 18-14 28-32 23l-288-55c-18-5-32-24-32-42l0-32c0 0 0 0 0-1 0-1 0-2 0-3l0-169c0-45-34-55-46-57-1 0-1 0-2 0-2-1-3-1-3-1l1 0c-14-3-29-9-41-18-38-29-48-77-24-108z"/>
<glyph unicode="&#73;" d="M512 291c-2 78-65 148-144 148-46 0-86-24-112-59-26 35-66 59-112 59-79 0-142-70-144-148l0 0c0-1 0-1 0-2 0 0 0 0 0-1 0-2 1-4 1-6 7-200 253-282 253-282 0 0 250 82 257 282 0 2 1 4 1 6 0 1 0 1 0 1 0 1 0 1 0 2z"/>
<glyph unicode="&#74;" d="M352 416c0 51-45 96-96 96-51 0-96-45-96-96 0-51 45-96 96-96 51 0 96 45 96 96z m-96-128c-84 0-160-91-160-203 0-113 320-113 320 0 0 112-76 203-160 203z"/>
<glyph unicode="&#75;" d="M193 0l96 0 0 256 87 0 9 88-96 0 0 44c0 23 1 36 35 36l61 0 0 88-88 0c-85 0-104-44-104-116l0-52-64 0 0-88 64 0z"/>
<glyph unicode="&#76;" d="M498 456c-20-12-43-20-67-25-19 20-46 33-77 33-58 0-105-47-105-105 0-8 1-16 3-24-87 4-165 46-216 110-9-16-15-34-15-53 0-36 19-69 47-87-17 0-33 5-47 13 0-1 0-1 0-2 0-50 36-93 84-103-9-2-18-3-28-3-7 0-13 0-20 2 14-42 53-72 98-73-35-28-81-45-130-45-8 0-17 0-25 1 46-30 102-47 161-47 193 0 299 160 299 299 0 4 0 9 0 13 20 15 38 34 52 55-19-9-39-14-60-17 21 13 38 34 46 58z"/>
<glyph unicode="&#77;" d="M129 216c25 44-8 53-13 85-21 130 149 218 239 128 61-63 21-256-79-236-95 19 47 173-29 203-62 24-95-75-66-125-17-84-54-164-39-271 49 35 65 103 79 173 24-14 37-30 68-32 115-9 180 114 164 229-14 101-115 152-223 140-85-9-170-78-173-176-2-60 15-105 72-118z"/>
<glyph unicode="&#78;" d="M137 46c85 0 132 48 132 97 0 39-12 62-47 87-12 9-35 29-35 42 0 14 4 21 25 38 23 17 38 42 38 70 0 34-15 66-43 77l43 0 30 22c0 0-101 0-134 0-60 0-117-46-117-98 0-54 41-98 102-98 4 0 8 0 12 1-4-8-6-16-6-25 0-15 8-27 18-37-8 0-15 0-23 0-75 0-132-48-132-97 0-48 63-79 137-79z m13 251c-34 1-67 39-73 84-6 45 17 80 52 79 34-1 67-37 73-83 6-45-17-81-52-80z m-4-88c12 0 23-2 33-5 28-20 48-31 54-53 1-4 1-9 1-14 0-39-25-69-97-69-52 0-89 32-89 71 0 39 46 71 98 70z m270 175l0 95-32 0 0-95-96 0 0-32 96 0 0-97 32 0 0 97 96 0 0 32z"/>
<glyph unicode="&#79;" d="M256 512c-141 0-256-115-256-256 0-141 115-256 256-256 141 0 256 115 256 256 0 141-115 256-256 256z m-219-256c0 31 6 60 19 87l104-279c-73 34-123 107-123 192z m219-214c-22 0-42 3-62 9l66 186 67-180c1-1 1-2 2-3-23-7-47-12-73-12z m30 314c13 1 25 2 25 2 12 2 11 18-1 18 0 0-36-3-59-3-21 0-57 3-57 3-12 1-14-17-2-18 0 0 11-1 23-2l34-91-48-140-79 231c13 1 25 2 25 2 11 2 10 18-2 18 0 0-35-3-58-3-4 0-9 0-14 0 39 58 106 97 183 97 57 0 109-22 148-56-1 0-2 0-3 0-21 0-37-18-37-38 0-18 11-33 22-50 8-15 18-33 18-59 0-18-7-40-17-69l-21-72z m189-100c0-79-43-148-109-185l67 189c13 31 17 55 17 77 0 7 0 15-1 22 17-31 26-66 26-103z"/>
<glyph unicode="&#80;" d="M33 352l95 0 0-352-95 0z m290 0c-35 0-52-17-67-28l0 28-95 0 0-352 95 0 0 222c0 0-3 44 49 44 32 0 47-18 47-44l0-222 101 0 0 218c0 120-97 134-130 134z m-291 80c0-27 21-48 48-48 27 0 48 21 48 48 0 27-21 48-48 48-27 0-48-21-48-48z"/>
<glyph unicode="&#81;" d="M0 512l0-98c228 0 414-186 414-414l98 0c0 282-230 512-512 512z m239-512l99 0c0 186-152 338-338 338l0-98c64 0 124-25 169-70 45-45 70-106 70-170z m-171 1c38 0 68 30 68 68 0 37-30 68-68 68-37 0-68-31-68-68 0-38 31-68 68-68z"/>
<glyph unicode="&#82;" d="M81 0l302 0c18 0 32 14 32 32l0 336c0 9-7 16-16 16l-271 0c-1 0-2 0-4 0l-43 0c-27 0-49 21-49 47 0 27 21 49 48 49l368 0 0-368c0-9 6-16 15-16 9 0 17 7 17 16l0 384c0 9-8 16-17 16l-382 0c-44 0-80-35-81-79l0 0 0-352c0-45 36-81 81-81z"/>
<glyph unicode="&#83;" d="M465 480c0 0-1 0-1 0 0 0 0 0-1 0l-201 0c-5 0-16-8-17-9l-236-236c-12-12-12-33 0-45l181-181c6-6 14-9 23-9 8 0 16 3 22 9l236 236c1 1 9 11 9 17l0 202c0 9-6 16-15 16z m-33-64c-9 0-16 7-16 16 0 9 7 16 16 16 9 0 16-7 16-16 0-9-7-16-16-16z"/>
<glyph unicode="&#84;" d="M465 512c0 0-1 0-1 0 0 0 0 0-1 0l-169 0c-5 0-16-8-17-9l-204-204c-12-12-12-33 0-45l25-26-25-25c-12-12-12-33 0-45l149-149c6-6 14-9 22-9 8 0 17 3 23 9l203 204c2 1 10 11 10 17l0 266c0 9-6 16-15 16z m-33-32c9 0 16-7 16-16 0-9-7-16-16-16-9 0-16 7-16 16 0 9 7 16 16 16z m16-245l-204-203-148 148 25 26 101-101c6-6 14-9 22-9 8 0 17 3 23 9l181 181 0-50c0 0 0-1 0-1 0 0 0 0 0 0z"/>
<glyph unicode="&#85;" d="M480 512l-448 0c-18 0-32-14-32-32l0-448c0-18 14-32 32-32l448 0c18 0 32 14 32 32l0 448c0 18-14 32-32 32z m-391-147c-16 16-16 42 0 58 16 16 42 16 58 0l42-43-57-57z m241-240l-165 164 58 58 164-165 29-86z"/>
<glyph unicode="&#86;" d="M332 324l-78 159-79-159-175-26 127-123-30-175 157 82 156-82-29 175 126 123z"/>
<glyph unicode="&#87;" d="M121 260c20-21 50-28 78-20l-152 151c-5 5-7 12-7 21 0 14 7 32 17 42 13 13 47 27 64 11l151-151c2 7 3 15 3 22 0 21-8 41-23 55l-102 103c-31 31-92 19-122-11-18-17-29-45-29-71 0-20 7-38 19-50z m270-8c-20 21-50 28-78 20l152-151c5-5 7-12 7-21 0-14-7-32-17-42-13-13-47-27-64-11l-151 151c-2-7-3-15-3-22 0-21 8-41 23-55l102-103c31-31 92-19 122 11 18 17 29 45 29 71 0 20-7 38-19 50z m-244 113c-4-4-7-9-7-15 0-6 3-11 7-15l188-188c8-9 22-9 30 0 4 4 7 9 7 15 0 6-3 11-7 15l-188 188c-8 9-22 9-30 0z"/>
<glyph unicode="&#88;" d="M480 416l-160 0c-18 0-32-14-32-32 0 0-4-29-32-32l-224 0c-18 0-32-14-32-31l0-289c0-18 14-32 32-32l448 0c18 0 32 14 32 32l0 352c0 18-14 32-32 32z"/>
<glyph unicode="&#89;" d="M323 355c-6 6-16 6-22 0l-104-104c-3-3-5-7-5-11 0-4 2-8 5-11l104-104c6-6 16-6 22 0 6 6 6 16 0 22l-92 93 92 93c6 6 6 16 0 22z m-51 125c-133 0-240-107-240-240 0-133 107-240 240-240 133 0 240 107 240 240 0 133-107 240-240 240z m0-448c-115 0-208 93-208 208 0 115 93 208 208 208 115 0 208-93 208-208 0-115-93-208-208-208z"/>
<glyph unicode="&#90;" d="M347 251l-104 104c-6 6-16 6-22 0-6-6-6-16 0-22l92-93-92-93c-6-6-6-16 0-22 6-6 16-6 22 0l104 104c3 3 5 7 5 11 0 4-2 8-5 11z m-74 227c-132 0-239-107-239-239 0-132 107-239 239-239 132 0 239 107 239 239 0 132-107 239-239 239z m0-446c-114 0-207 93-207 207 0 114 93 207 207 207 114 0 207-93 207-207 0-114-93-207-207-207z"/>
<glyph unicode="&#48;" d="M181 241l85 95c6 7 6 17 0 23-6 7-16 7-23 0l-94-107c-3-3-5-7-5-11 0-5 2-9 5-12l94-107c7-6 17-6 23 0 6 6 6 16 0 23z m200 118c-6 7-17 7-23 0l-95-107c-3-3-4-7-4-11 0-5 1-9 4-12l95-107c6-6 17-6 23 0 6 6 6 16 0 23l-85 96 85 95c6 7 6 17 0 23z m-109 121c-133 0-240-107-240-240 0-133 107-240 240-240 133 0 240 107 240 240 0 133-107 240-240 240z m0-448c-115 0-208 93-208 208 0 115 93 208 208 208 115 0 208-93 208-208 0-115-93-208-208-208z"/>
<glyph unicode="&#49;" d="M395 251l-94 107c-7 6-17 6-23 0-6-6-6-16 0-23l85-96-85-95c-6-7-6-17 0-23 6-6 16-6 23 0l94 107c3 3 5 7 5 11 0 5-2 9-5 12z m-110-12c0 5-1 9-4 12l-95 107c-6 6-17 6-23 0-6-6-6-16 0-23l85-96-85-95c-6-7-6-17 0-23 6-6 17-6 23 0l95 107c3 3 4 7 4 11z m-13 241c-133 0-240-107-240-240 0-133 107-240 240-240 133 0 240 107 240 240 0 133-107 240-240 240z m0-448c-115 0-208 93-208 208 0 115 93 208 208 208 115 0 208-93 208-208 0-115-93-208-208-208z"/>
<glyph unicode="&#50;" d="M482 30l-34 102-271 271-17-17-51-51 271-271z m-418 350l68 68-34 34c-19 19-49 19-68 0-19-19-19-49 0-68z"/>
<glyph unicode="&#51;" d="M330 125l86-29-29 86-164 165-58-58z m-198 198l57 57-42 43c-16 16-42 16-58 0-16-16-16-42 0-58z m348 189l-448 0c-18 0-32-14-32-32l0-448c0-18 14-32 32-32l448 0c18 0 32 14 32 32l0 448c0 18-14 32-32 32z m0-480l-448 0 0 448 448 0z"/>
<glyph unicode="&#52;" d="M128 302c0-27 21-49 47-49 8 0 16 3 23 7-2-27-16-65-64-104-7-5-8-15-3-22 3-4 8-7 13-7 3 0 6 2 9 4 59 48 74 97 76 130 4 42-9 64-21 75-1 1-2 3-3 4-3 2-5 4-7 5-1 0-1 0-1 0 0 0 0 0 0 0-3 2-6 3-6 3l1-1c-6 3-11 4-17 4-26 0-47-22-47-49z m155 0c0-27 21-49 47-49 9 0 16 3 23 7-2-27-15-65-64-104-7-5-8-15-2-22 3-4 7-7 12-7 3 0 6 2 9 4 60 48 74 97 76 130 4 42-9 64-21 75-1 1-2 3-3 4-3 2-5 4-7 5 0 0 0 0-1 0 0 0 0 0 0 0-3 2-6 3-6 3l1-1c-5 3-11 4-17 4-26 0-47-22-47-49z"/>
<glyph unicode="&#53;" d="M273 478c-61 0-122-23-169-70-93-93-93-245 0-338 47-47 108-70 169-70 61 0 122 23 169 70 93 93 93 245 0 338-47 47-108 70-169 70z m146-385c-39-39-91-61-146-61-55 0-107 22-146 61-39 39-61 91-61 146 0 55 22 107 61 146 39 39 91 61 146 61 55 0 107-22 146-61 39-39 61-91 61-146 0-55-22-107-61-146z m-51 163l-80 0 0 112c0 9-7 16-16 16-9 0-16-7-16-16l0-128c0 0 0 0 0 0l0 0c0-9 7-16 16-16l96 0c9 0 16 7 16 16 0 9-7 16-16 16z"/>
<glyph unicode="&#54;" d="M161 419l-129 61 0-384 129-61z m32-383l128 57 0 384-128-57z m160 56l127-60 0 384-127 60z"/>
<glyph unicode="&#55;" d="M224 432c0 43-37 80-80 80-43 0-80-37-80-80 0-43 37-80 80-80 43 0 80 37 80 80z m56-304c0 128-66 192-140 192-74 0-140-64-140-192 0-88 280-88 280 0z m96 162c43 0 80 37 80 80 0 43-37 80-80 80-43 0-80-37-80-80 0-43 37-80 80-80z m-4-32c-22 0-43-7-62-18 11-32 18-69 18-112 0-43-29-77-78-96 61-52 262-41 262 34 0 128-66 192-140 192z"/>
<glyph unicode="&#56;" d="M480 480l-416 0c-18 0-32-14-32-32l0-416c0-18 14-32 32-32l416 0c18 0 32 14 32 32l0 416c0 18-14 32-32 32z m-80-352l-256 0c-9 0-16 7-16 16 0 9 7 16 16 16l256 0c9 0 16-7 16-16 0-9-7-16-16-16z m0 96l-256 0c-9 0-16 7-16 16 0 9 7 16 16 16l256 0c9 0 16-7 16-16 0-9-7-16-16-16z m0 96l-256 0c-9 0-16 7-16 16 0 9 7 16 16 16l256 0c9 0 16-7 16-16 0-9-7-16-16-16z"/>
<glyph unicode="&#57;" d="M443 431c-117 8-255 10-374 0-37-4-62-49-65-83-5-71-5-112 0-184 3-34 28-79 65-84 120-8 258-9 374 0 36 7 62 50 65 84 6 72 6 117 0 189-3 34-23 77-65 78z m-251-266l0 184 160-92z"/>
<glyph unicode="&#33;" d="M272 480c-133 0-240-107-240-240 0-133 107-240 240-240 133 0 240 107 240 240 0 133-107 240-240 240z m51-333c6-6 6-16 0-22-6-6-16-6-22 0l-104 104c-3 3-5 7-5 11 0 4 2 8 5 11l104 104c6 6 16 6 22 0 6-6 6-16 0-22l-92-93z"/>
<glyph unicode="&#34;" d="M272 480c-133 0-240-107-240-240 0-133 107-240 240-240 133 0 240 107 240 240 0 133-107 240-240 240z m75-251l-104-104c-6-6-16-6-22 0-6 6-6 16 0 22l92 93-92 93c-6 6-6 16 0 22 6 6 16 6 22 0l104-104c3-3 5-7 5-11 0-4-2-8-5-11z"/>
<glyph unicode="&#35;" d="M112 256l288 0c9 0 16 7 16 16 0 9-7 16-16 16l-288 0c-9 0-16-7-16-16 0-9 7-16 16-16z m0 96l288 0c9 0 16 7 16 16 0 9-7 16-16 16l-288 0c-9 0-16-7-16-16 0-9 7-16 16-16z m0-192l288 0c9 0 16 7 16 16 0 9-7 16-16 16l-288 0c-9 0-16-7-16-16 0-9 7-16 16-16z"/>
<glyph unicode="&#36;" d="M64 0l384 0c18 0 32 14 32 32l0 448c0 18-14 32-32 32l-384 0c-18 0-32-14-32-32l0-448c0-18 14-32 32-32z m0 480l384 0 0-448-384 0z m304-64l-128 0c-9 0-16-7-16-16 0-9 7-16 16-16l128 0c9 0 16 7 16 16 0 9-7 16-16 16z m0-96l-224 0c-9 0-16-7-16-16 0-9 7-16 16-16l224 0c9 0 16 7 16 16 0 9-7 16-16 16z m0-96l-224 0c-9 0-16-7-16-16 0-9 7-16 16-16l224 0c9 0 16 7 16 16 0 9-7 16-16 16z m0-96l-224 0c-9 0-16-7-16-16 0-9 7-16 16-16l224 0c9 0 16 7 16 16 0 9-7 16-16 16z"/>
<glyph unicode="&#37;" d="M64 64l32 0 0-32c0-18 14-32 32-32l320 0c18 0 32 14 32 32l0 384c0 18-14 32-32 32l-32 0 0 32c0 18-14 32-32 32l-320 0c-18 0-32-14-32-32l0-384c0-18 14-32 32-32z m320 32l-320 0 0 384 320 0z m64 320l0-384-320 0 0 32 256 0c18 0 32 14 32 32l0 320z m-288-16c0-9 7-16 16-16l160 0c9 0 16 7 16 16 0 9-7 16-16 16l-160 0c-9 0-16-7-16-16z m-48-112l224 0c9 0 16 7 16 16 0 9-7 16-16 16l-224 0c-9 0-16-7-16-16 0-9 7-16 16-16z m0-64l224 0c9 0 16 7 16 16 0 9-7 16-16 16l-224 0c-9 0-16-7-16-16 0-9 7-16 16-16z m0-64l224 0c9 0 16 7 16 16 0 9-7 16-16 16l-224 0c-9 0-16-7-16-16 0-9 7-16 16-16z"/>
<glyph unicode="&#38;" d="M64 0l385 0c18 0 32 14 32 32l0 448c0 18-14 32-32 32l-385 0c-18 0-32-14-32-32l0-448c0-18 14-32 32-32z m176 416l129 0c9 0 16-7 16-16 0-9-7-16-16-16l-129 0c-9 0-16 7-16 16 0 9 7 16 16 16z m-96-96l225 0c9 0 16-7 16-16 0-9-7-16-16-16l-225 0c-9 0-16 7-16 16 0 9 7 16 16 16z m0-96l225 0c9 0 16-7 16-16 0-9-7-16-16-16l-225 0c-9 0-16 7-16 16 0 9 7 16 16 16z m0-96l225 0c9 0 16-7 16-16 0-9-7-16-16-16l-225 0c-9 0-16 7-16 16 0 9 7 16 16 16z"/>
<glyph unicode="&#39;" d="M64 64l32 0 0-32c0-18 14-32 32-32l320 0c18 0 32 14 32 32l0 384c0 18-14 32-32 32l-32 0 0 32c0 18-14 32-32 32l-320 0c-18 0-32-14-32-32l0-384c0-18 14-32 32-32z m384 352l0-384-320 0 0 32 256 0c18 0 32 14 32 32l0 320z m-112 32c9 0 16-7 16-16 0-9-7-16-16-16l-129 0c-9 0-16 7-16 16 0 9 7 16 16 16z m-225-96l225 0c9 0 16-7 16-16 0-9-7-16-16-16l-225 0c-9 0-16 7-16 16 0 9 7 16 16 16z m0-96l225 0c9 0 16-7 16-16 0-9-7-16-16-16l-225 0c-9 0-16 7-16 16 0 9 7 16 16 16z m0-96l225 0c9 0 16-7 16-16 0-9-7-16-16-16l-225 0c-9 0-16 7-16 16 0 9 7 16 16 16z"/>
<glyph unicode="&#40;" d="M480 352l-64 0c0 0-18 0-32 32-7 16-14 32-32 32l-128 0c-18 0-25-16-32-32-13-32-32-32-32-32l-32 0c0 18-14 32-32 32l-32 0c-18 0-32-14-32-32-18 0-32-14-32-32l0-256c0-18 14-32 32-32l448 0c18 0 32 14 32 32l0 256c0 18-14 32-32 32z m0-288l-448 0 0 128 146 0c7-54 54-96 110-96 58 0 105 44 111 100l81 0z m-272 144c0 44 36 80 80 80 44 0 80-36 80-80 0-44-36-80-80-80-44 0-80 36-80 80z m190 16c-7 54-54 96-110 96-56 0-103-42-110-96l-146 0 0 96 128 0c19 0 46 14 62 52 2 6 4 10 5 12l122 0c2-4 5-10 6-12 20-50 54-52 61-52l64 0 0-96z m-334 48c0-9 7-16 16-16 9 0 16 7 16 16 0 9-7 16-16 16-9 0-16-7-16-16z"/>
</font>
</defs>
</svg>
